#TITLE:Metaspectacular thingy from beyond;
#SUBTITLE:~Quattro!!! original~;
#ARTIST:Djsmalls;
#TITLETRANSLIT:;
#SUBTITLETRANSLIT:;
#ARTISTTRANSLIT:;
#CREDIT:;
#BANNER:metaespectacularthingyfrombeyond-banner.PNG;
#BACKGROUND:metaespectacularthingyfrombeyond-bg.PNG;
#LYRICSPATH:;
#CDTITLE:quattro!!!cdtittle.png;
#MUSIC:djsmalls - metaspectactular thingy from beyond.mp3;
#OFFSET:-0.020;
#SAMPLESTART:19.980;
#SAMPLELENGTH:12.000;
#SELECTABLE:YES;
#BPMS:0.000=300.000;
#STOPS:;
#BGCHANGES:;
// cache tags:
#FIRSTBEAT:0.000;
#LASTBEAT:368.000;
#SONGFILENAME:Songs/Chilean Keyboard Megapack 3/(Quattro!!!) Metaespectacular thingy from beyond/metaespectacularthingyfrombeyond.sm;
#HASMUSIC:1;
#HASBANNER:1;
#MUSICLENGTH:73.743;
// end cache tags

//---------------dance-single - ----------------
#NOTES:
     dance-single:
     :
     Challenge:
     15:
     1.000,1.000,0.231,0.325,0.909,821.000,17.000,24.000,0.000,4.000:
2000
0000
0000
0000
,
3002
0000
0013
0100
0010
0100
0010
0100
,
0001
0010
0100
1000
0001
0010
0100
1000
,
0001
0010
0100
1000
0001
0010
0100
1000
,
0100
0010
0001
1000
0100
0010
0001
1000
,
0100
0010
0001
1000
0100
0010
0001
1000
,
0100
0010
0100
0010
0100
0000
0001
0000
0001
0000
0001
0000
0001
0000
0001
0000
,
0001
0001
0001
0001
0001
0001
2001
0000
,
3001
0100
0001
0100
0001
0100
0001
0100
,
0001
0100
0001
0100
0001
0100
0001
0100
,
1000
0100
1000
0100
1000
0000
1000
0000
1000
0000
1000
0000
1000
0000
1000
0000
,
1000
1000
1000
1000
1000
1000
1020
0000
,
0130
0010
0100
0010
0100
0010
0100
0010
,
0100
0010
0100
0010
0100
0010
0100
0010
,
0100
0010
0100
0010
0100
0000
0100
0000
0100
0000
0100
0000
0100
0000
0100
0000
,
0100
0100
0100
0100
0100
0100
0120
0000
,
0031
0010
0100
0010
0001
0010
0100
0010
,
0001
0010
0100
0010
0001
0010
0100
0010
,
0001
0010
0100
1000
0001
0010
0100
1000
,
0001
0010
0100
1000
0001
0010
0100
1000
,
0100
0010
0100
1000
0100
0010
0100
1000
,
0100
0010
0100
1000
0100
0010
0100
1000
,
0100
0010
0100
1000
0100
0000
0010
0000
0010
0000
0010
0000
0010
0000
0010
0000
,
0010
0010
0010
0010
0010
0010
0210
0000
,
1300
0010
1000
0010
0100
0001
0100
0001
,
1000
0010
1000
0010
0100
0001
0100
0001
,
1000
0010
1000
0010
0100
0000
1000
0000
1000
0000
1000
0000
1000
0000
1000
0000
,
1000
1000
1000
1000
1000
1000
1200
0000
,
1300
0001
0100
0010
1000
0001
0100
0010
,
1000
0001
0100
0010
1000
0001
0100
0010
,
1000
0001
0100
0010
0100
0000
0100
0000
0100
0000
0100
0000
0100
0000
0100
0000
,
0100
0100
0100
0100
0100
0100
0102
0000
,
1003
0100
0010
0001
0010
0100
1000
0100
,
0010
0001
0010
0100
1000
0100
0010
0001
,
0010
0100
1000
0100
1000
0100
1000
0100
,
1000
0100
1000
0100
1000
0100
1000
0100
,
0010
0001
0010
0001
0010
0001
0010
0001
,
0010
0100
0010
0100
0010
0100
0010
0100
,
1000
0100
0010
0001
0001
0001
0001
0001
,
1000
0100
0010
0001
0001
0001
0001
0001
,
0010
0100
0010
0100
0010
0100
0010
0100
,
0010
0100
0010
0100
0010
0100
0010
0001
,
0010
0100
0010
0001
1000
0100
0010
0001
,
0010
0100
1000
0100
0010
0100
0010
0100
,
0010
0001
0010
0001
0010
0001
0010
0001
0010
0001
0010
0001
0010
0001
0010
0001
,
0010
0001
0010
0001
0010
0001
0010
0001
0010
0001
0010
0001
0010
0001
0010
0001
,
0010
0100
1000
0100
1000
0100
1000
0100
1000
0100
1000
0100
1000
0100
1000
0100
,
1000
0100
1000
0100
1000
0100
1000
0100
1000
0100
1000
0100
1000
0100
1000
0100
,
1000
0100
0010
0001
0010
0100
1000
0100
0010
0001
0010
0100
1000
0100
0010
0001
,
0010
0100
1000
0100
0010
0001
0010
0100
1000
0100
0010
0001
0010
0100
1000
0100
,
0010
0001
0010
0100
1000
0100
0010
0001
0010
0100
1000
0001
0010
0100
1000
0001
,
0010
0100
1000
0001
0010
0100
1000
0001
0010
0100
1000
0001
0010
0100
1000
0001
,
0010
0100
1000
0001
0010
0100
1000
0001
0010
0100
1000
0001
0010
0100
1000
0001
,
0010
1000
0100
0001
0010
1000
0100
0001
0010
1000
0100
0001
0010
1000
0100
0001
,
0010
1000
0100
0001
0010
1000
0100
0001
0010
1000
0100
0001
0010
1000
0100
0001
,
0010
1000
0100
0001
0010
0100
1000
0100
0010
0100
0010
0001
0010
0100
0010
0001
,
1000
0100
0010
0001
0010
0100
0010
0001
1000
0100
0010
0001
0010
0100
1000
0100
,
0010
0100
0010
0001
0010
0100
0010
0001
1000
0100
0010
0001
0010
0100
0010
0001
,
1000
1000
1000
1000
1000
1000
1000
1000
,
1000
1000
1000
1000
1000
1000
1020
0000
,
0031
0010
0001
0010
0001
0010
0001
0010
,
0001
0010
0001
0010
0001
0010
0001
0010
,
0001
0010
0001
0010
0001
0000
0010
0000
0010
0000
0010
0000
0010
0000
0010
0000
,
0010
0010
0010
0010
0010
0010
2010
0000
,
3100
1000
0100
1000
0100
1000
0100
1000
,
0100
1000
0100
1000
0100
1000
0100
1000
,
0100
1000
0100
1000
0100
0000
0100
0000
0100
0000
0100
0000
0100
0000
0100
0000
,
0100
0100
0100
0100
0100
0100
2100
0000
,
3001
0010
0100
1000
0100
0010
0001
0010
,
0100
1000
0100
0010
0001
0010
0100
1000
,
0100
0010
0001
0010
0100
0000
1000
0000
1000
0000
1000
0000
1000
0000
1000
0000
,
1000
1000
1000
1000
1000
1000
1002
0000
,
0013
0100
0010
0100
0010
0100
0010
0100
,
0010
0100
0010
0100
0010
0100
0010
0100
,
0010
0100
1000
0001
0010
0100
1000
0001
,
0010
0100
1000
0001
0010
0100
1000
0100
,
0022
0000
0000
0000
,
2133
0000
3001
0010
0100
0010
0100
0010
,
0001
0010
0100
1000
0001
0010
0100
1000
,
0001
0010
0100
1000
0001
0010
0100
1000
,
0202
0000
0000
0000
,
2313
0000
3100
0010
0001
0010
0001
0010
,
0001
0010
0100
1000
0100
0010
0001
0010
,
0100
1000
0100
0010
0001
0010
0100
1000
,
0220
0000
0000
0000
,
0332
0000
1003
0100
0010
0100
0010
0100
,
1000
0100
0010
0001
1000
0100
0010
0001
,
1000
0100
0010
0001
1000
0100
0010
0001
,
2200
0000
0000
0000
,
3312
0000
0013
0100
1000
0100
1000
0100
,
1000
0100
0010
0001
0010
0100
0010
0001
,
1000
0000
0100
0000
0010
0000
0001
0000
1000
0100
1000
0100
1000
0100
1000
0100
,
1000
0000
0000
0000
;
